MejorTorrent : variados extend
Inicio   -   Ayuda   -   Contacto   -   últimos Torrents

Torrents
Documentales842
Películas11256
Películas HD2068
Series1961
  Episodios22513
Series HD244
  Episodios2743
Juegos2689
  PC1736
Variados1521
  Deportes36
  Programas592
  Videoclips102
  Otros722
Música MP3 3525
Total Torrents57258

Información
Esta web no contiene ningún tipo de fichero almacenado.

Todos los archivos se comparten mediante el BitTorrent, un programa P2P de intercambio entre usuarios.



Descarga la última versión de uTorrent y baja a la máxima velocidad:
Hawkwind - The Chronicle of the Black Sword (1985)
Total Descargas:  1.738 En Agosto:  1.738

Fecha:  2016-05-14



Torrent:      Descargar         Tamaño:  1,15 GB
Descripción:

1. Song of the Swords [5:08]
2. Sea King [4:46]
3. Master of the Universe [5:20]
4. Choose Your Masques [8:20]
5. Needlegun [3:55]
6. Zarozinia [4:16]
7. Brainstorm [4:15]
8. Moonglum [4:41]
9. Elric the Enchanter [2:32]
10. Magnu [5:20]
11. Horn of Destiny [9:35]
12. Encore-Medley* [11:07]

Format : MPEG-4
Format profile : Base Media / Version 2
Codec ID : mp42
File size : 1.15 GiB
Duration : 1h 9mn
Overall bit rate mode : Variable
Overall bit rate : 2 378 Kbps
Movie name : Hawkwind - The Chronicle of the Black Sword (1985) DVDRip x264 AAC peaSoup

Video
ID : 1
Format : AVC
Format/Info : Advanced Video Codec
Format profile : Main@L3.0
Format settings, CABAC : Yes
Format settings, ReFrames : 1 frame
Format settings, GOP : N=1
Codec ID : avc1
Codec ID/Info : Advanced Video Coding
Duration : 1h 9mn
Bit rate : 2 245 Kbps
Width : 624 pixels
Height : 480 pixels
Display aspect ratio : 4:3
Frame rate mode : Constant
Frame rate : 29.970 fps
Color space : YUV
Chroma subsampling : 4:2:0
Bit depth : 8 bits
Scan type : Progressive
Bits/(Pixel*Frame) : 0.250
Stream size : 1.09 GiB (94%)
Writing library : x264 core
Encoded date : UTC 2014-07-17 15:56:33
Tagged date : UTC 2014-07-17 16:09:39
Color primaries : BT.601 NTSC
Transfer characteristics : BT.709
Matrix coefficients : BT.601

Audio
ID : 2
Format : AAC
Format/Info : Advanced Audio Codec
Format profile : LC
Codec ID : 40
Duration : 1h 9mn
Bit rate mode : Variable
Bit rate : 128 Kbps
Maximum bit rate : 159 Kbps
Channel(s) : 2 channels
Channel positions : Front: L R
Sampling rate : 48.0 KHz
Compression mode : Lossy
Stream size : 63.5 MiB (5%)
Encoded date : UTC 2014-07-17 15:56:33
Tagged date : UTC 2014-07-17 16:09:30

Menu
ID : 3
Codec ID : text
Duration : 1h 9mn
Encoded date : UTC 2014-07-17 15:56:33
Tagged date : UTC 2014-07-17 16:09:43
Bit rate mode : VBR



Volver al índice de Variados







Datos legales


DMCA.com Protection Status
11:19:54
computer