MejorTorrent : variados extend
Inicio   -   Ayuda   -   Contacto   -   últimos Torrents

Torrents
Documentales842
Películas11256
Películas HD2068
Series1961
  Episodios22513
Series HD244
  Episodios2743
Juegos2689
  PC1736
Variados1521
  Deportes36
  Programas592
  Videoclips102
  Otros722
Música MP3 3525
Total Torrents57258

Información
Esta web no contiene ningún tipo de fichero almacenado.

Todos los archivos se comparten mediante el BitTorrent, un programa P2P de intercambio entre usuarios.



Descarga la última versión de uTorrent y baja a la máxima velocidad:
Taylor Swift - Wildest Dreams
[720p] Total Descargas:  2.734 En Noviembre:  2.067

Fecha:  2015-09-10



Torrent:      Descargar         Tamaño:  40,30 MB
Descripción:

General
Format : MPEG-4
File size : 40.3 MB
Duration : 3mn 54s
Overall bit rate mode : Variable
Overall bit rate : 1 441 Kbps

Video
Format : AVC
Format/Info : Advanced Video Codec
Format profile : High@L4
Format settings, ReFrames : 12 frames
Duration : 3mn 54s
Bit rate : 1 253 Kbps
Width : 1 280 pixels
Height : 540 pixels
Display aspect ratio : 2.40:1
Frame rate mode : Variable
Frame rate : 23.976 fps
Color space : YUV
Chroma subsampling : 4:2:0
Bit depth : 8 bits
Scan type : Progressive
Bits/(Pixel*Frame) : 0.076
Stream size : 35.1 MiB (87%)

Audio
Format : AAC
Bit rate : 179 Kbps
Channel(s) : 2 channels
Channel positions : Front: L R
Sampling rate : 48.0 KHz
Stream size : 5.01 MiB (12%)
Language : English

Subtitles
Type : Soft Subs
Language : English
(Note : Subtitles are not default. Please enable them.)



Volver al índice de Variados







Datos legales


01:49:15
computer